#TITLE:Fire Fire;
#SUBTITLE:;
#ARTIST:Unknown artist;
#TITLETRANSLIT:;
#SUBTITLETRANSLIT:;
#ARTISTTRANSLIT:;
#CREDIT:;
#BANNER:2fire.jpg;
#BACKGROUND:2fire-bg.jpg;
#LYRICSPATH:;
#CDTITLE:2fire.png;
#MUSIC:Fire Fire.mp3;
#OFFSET:-0.460;
#SAMPLESTART:69.200;
#SAMPLELENGTH:12.000;
#SELECTABLE:YES;
#DISPLAYBPM:150.000;
#BPMS:0.000=150.000,28.000=300.000,30.500=150.000,32.000=150.000,100.000=300.000,104.000=150.000,111.000=599.996,111.500=150.000,116.500=300.001,120.500=150.000,127.000=300.000,127.500=150.020,132.500=300.000,136.500=150.000,140.000=300.000,140.500=150.000,143.500=300.000,144.500=150.000,146.000=300.000,146.500=150.000,148.000=300.000,148.500=150.000,150.000=300.000,150.500=150.000,152.000=300.000,152.500=150.000,156.000=300.000,156.500=150.000,160.000=300.000,160.500=150.000,164.000=300.000,164.500=150.000,165.000=300.000,165.500=150.000,166.000=300.000,166.500=150.000,167.000=300.000,168.500=150.000;
#STOPS:28.000=0.040
,28.250=0.060
,28.500=0.060
,28.750=0.040
,29.000=0.040
,29.250=0.040
,29.500=0.060
,29.750=0.040
,30.000=0.060
,30.250=0.060
,100.125=0.020
,100.250=0.020
,100.375=0.020
,100.500=0.020
,100.625=0.020
,100.750=0.020
,100.875=0.020
,101.000=0.020
,101.125=0.020
,101.250=0.020
,101.375=0.020
,101.500=0.020
,101.625=0.020
,101.750=0.020
,101.875=0.020
,102.000=0.020
,102.125=0.020
,102.250=0.020
,102.375=0.020
,102.500=0.020
,102.625=0.020
,102.750=0.020
,102.875=0.020
,103.000=0.020
,103.125=0.020
,103.250=0.020
,103.375=0.020
,103.500=0.020
,103.625=0.020
,103.750=0.020
,111.000=0.040
,111.125=0.040
,111.250=0.040
,111.375=0.040
,116.625=0.020
,116.750=0.080
,117.000=0.060
,117.250=0.060
,117.500=0.020
,117.625=0.020
,117.750=0.040
,118.000=0.060
,118.250=0.060
,118.500=0.020
,118.625=0.020
,118.750=0.060
,119.000=0.060
,119.250=0.040
,119.500=0.020
,119.625=0.020
,119.750=0.060
,120.000=0.020
,120.125=0.020
,120.250=0.020
,120.375=0.020
,127.000=0.020
,127.125=0.020
,127.250=0.020
,127.375=0.020
,132.500=0.060
,132.750=0.060
,133.000=0.060
,133.250=0.040
,133.500=0.040
,133.750=0.040
,134.000=0.060
,134.250=0.040
,134.500=0.060
,134.750=0.060
,135.000=0.040
,135.250=0.060
,135.500=0.060
,135.750=0.040
,136.000=0.060
,136.250=0.020
,140.000=0.020
,140.125=0.020
,140.250=0.020
,140.375=0.040
,143.500=0.020
,143.625=0.020
,143.750=0.020
,143.875=0.020
,144.000=0.020
,144.125=0.020
,144.250=0.020
,144.375=0.040
,146.000=0.020
,146.125=0.020
,146.250=0.020
,146.375=0.040
,148.000=0.020
,148.125=0.020
,148.250=0.020
,148.375=0.040
,150.000=0.020
,150.125=0.020
,150.250=0.020
,150.375=0.040
,152.000=0.020
,152.125=0.020
,152.250=0.020
,152.375=0.040
,156.000=0.020
,156.125=0.020
,156.250=0.020
,156.375=0.040
,160.000=0.020
,160.125=0.040
,160.250=0.020
,160.375=0.040
,164.000=0.020
,164.125=0.020
,164.250=0.020
,164.375=0.040
,165.000=0.020
,165.125=0.020
,165.250=0.020
,165.375=0.040
,166.000=0.020
,166.125=0.020
,166.250=0.020
,166.375=0.040
,167.000=0.020
,167.125=0.020
,167.250=0.020
,167.375=0.040
,167.500=0.020
,167.625=0.020
,167.750=0.040
,167.875=0.020
,168.000=0.020
,168.125=0.040
,168.250=0.020
,168.375=0.020
;
#BGCHANGES:;
// cache tags:
#FIRSTBEAT:0.000;
#LASTBEAT:308.500;
#SONGFILENAME:Songs/Music V.I.P ^_^/Fire Fire/Fire Fire.sm;
#HASMUSIC:1;
#HASBANNER:1;
#MUSICLENGTH:130.250;
// end cache tags

//---------------dance-single - ----------------
#NOTES:
     dance-single:
     :
     Challenge:
     35:
     1.000,1.000,1.000,0.084,1.000,1123.000,286.000,11.000,0.000,18.000:
0220
0000
0000
0000
0000
0000
0000
0330
,
1111
0000
1000
0100
1010
0001
0100
0010
0000
0001
0000
0001
0010
0000
1000
0000
,
0100
0001
0010
0100
1001
0100
1000
0100
0000
0001
0000
0001
0100
0000
1000
0000
,
0101
1000
0001
0010
0001
0100
0010
1000
0000
1000
0000
1000
0100
0000
0010
0000
,
1001
0010
0001
0100
0010
1000
0000
0100
0000
0010
0000
0010
0100
0000
1000
0000
,
1101
0010
0100
0010
1001
0100
0010
0100
0000
0001
0000
0001
1100
0000
0110
0000
,
0011
0100
1000
0010
0101
0010
1000
0100
0000
0010
0000
0010
0001
0000
1010
0000
,
0101
0000
1100
0000
0011
0100
1000
0000
0011
0000
1100
0000
0011
1000
0100
0000
1010
0000
0001
0000
0100
0000
0010
0000
1100
0000
0001
0000
0010
0000
0100
0010
,
1001
0010
0100
1000
0100
0010
0001
0010
0100
1000
0100
0010
0001
0010
0100
1000
,
0111
1000
0010
1000
0101
0010
0001
0100
1001
0100
0010
0100
1001
0010
0101
1100
,
0011
0001
0100
0010
1001
0010
0100
0001
1010
0100
0010
1000
0110
1000
0001
0010
,
1100
1000
0100
0011
1000
0001
0110
0001
1100
0001
0110
1000
0101
1000
0011
0010
,
0101
1000
0100
0010
0101
1000
0001
0001
0011
0000
0101
0010
1001
0000
0100
0010
,
1101
0000
0001
0000
0010
0000
1001
0000
0100
0000
0010
0000
1001
0000
0100
0000
1000
0000
0010
0000
0100
0000
0010
0000
1001
0000
0010
0000
0100
0000
0100
0010
,
1001
0000
0001
0010
1100
0010
0010
0010
1001
0000
0001
0010
0101
0000
0010
0001
,
1110
1000
0010
0100
1001
0100
1000
0010
0101
1000
0100
0010
0101
0010
0100
1000
,
0101
1000
0001
0010
1001
0100
0010
1000
0101
0010
0101
1000
0011
1000
0101
0010
,
1101
0010
0100
1000
0110
1000
0001
0100
0011
1000
0010
0100
0001
1000
0100
0010
,
1001
0010
0100
0101
1010
0100
1000
0001
1010
0010
0010
0010
0101
1000
0010
0100
,
1001
0010
0100
0010
1100
0001
0100
0010
1001
0100
0001
0010
0101
0010
1000
0100
,
0010
0100
1000
0001
0100
0100
0100
0100
1010
0001
0010
1000
0010
0001
0110
1001
,
0110
0000
1000
0000
1100
0000
0010
0000
0101
0000
1000
0000
0010
0000
0100
0000
1011
0000
0001
0000
0010
0000
0100
0000
1011
0000
1000
0000
0100
0000
0010
0001
,
2100
0000
0001
0000
0100
0000
3010
0000
0101
0000
1000
0000
0010
0000
0101
0000
1011
0000
0001
0000
0100
0000
1000
0000
0101
0000
0010
0000
0100
0000
1000
0100
,
0012
0000
1000
0000
0100
0000
0013
0000
1101
0000
0001
0000
0100
0000
0010
0001
1210
0000
0001
0000
1000
0000
0310
0000
0001
0000
1000
0000
0100
0000
0010
0001
,
1200
0000
0001
0000
0010
0000
1300
0001
0110
0000
0001
0000
1000
0000
0010
0100
1001
0000
0100
0000
0010
0000
0001
0000
1000
0000
0100
0000
0010
0000
0001
0000
,
1000
0100
0010
0001
0010
0001
0010
0100
1000
0100
0010
0001
0010
0100
0010
0100
1000
0100
1000
0100
0010
0001
0010
0100
1000
0100
1000
0100
1000
0100
0010
0001
,
1110
1000
0100
0010
1001
0010
0100
0000
0010
0100
0010
0000
0100
0000
1000
0000
,
0010
0000
0100
0000
0010
0000
0000
0000
0001
0000
0000
0000
0100
0000
0000
0000
0010
0000
0001
0000
0010
0000
0000
0000
1000
0100
0010
0001
1100
0000
0000
0000
,
0110
0000
0011
1000
0100
1000
0001
0000
0001
0010
0100
0000
0010
0000
0001
0000
,
1000
0000
0000
0000
0010
0001
0010
0000
0100
0000
0010
0000
0100
0010
0100
0000
0100
0000
0010
0000
0100
1000
0100
0000
0010
0000
0001
0000
1000
0010
1000
0000
,
0010
1000
0100
0001
0020
0000
0000
0000
0100
0000
1000
0000
0130
0000
0000
0000
0010
0000
0001
0000
0010
0000
0000
0000
0100
0000
0000
0000
1000
0000
0000
0000
,
1000
0000
0100
0000
0010
0000
0000
0000
0001
0000
0010
0000
0001
0000
0000
0000
0001
0000
0010
0000
0100
0000
0000
0000
0010
0010
0010
0010
1100
0000
0000
0000
,
0011
0000
0110
0001
0100
1001
0010
0000
0010
1000
0100
0000
0100
0000
0001
0000
,
0100
0000
0001
0000
1100
0000
0110
0000
0011
0000
0110
0000
1100
0000
1000
0000
0010
0001
1100
0000
0110
0000
0011
0000
1010
0000
1100
0000
0110
0001
0010
0000
,
0101
1000
0100
0000
0010
0000
0001
0000
0010
0000
0100
0000
1010
0000
0000
0000
0010
0000
0001
0000
0010
0000
0000
0000
0100
0000
0000
0000
0010
0000
0000
0000
,
0001
0010
0100
1000
0011
0000
0100
0000
1000
0000
0100
0000
0010
0000
0000
0000
0100
0000
0010
0000
0100
0000
0000
0000
1000
0000
0000
0000
0101
0010
1000
0001
,
0010
1000
0100
0010
1001
0000
0010
0000
0100
0000
0010
0000
1001
0000
0000
0000
0001
0010
0100
1000
0011
0000
1000
0000
0100
0000
0010
0000
0001
0000
0000
0000
,
1000
0100
0010
0100
1001
0000
0100
0000
0010
0000
1000
0000
0011
0000
0100
0000
0010
0001
0100
1000
0011
0000
0001
0000
0100
0000
0010
0000
1010
0000
0001
0000
,
0100
0100
0100
0100
1010
0000
0001
0000
0010
0000
1000
0000
1100
0000
0001
0000
0100
0000
0010
0000
0101
0000
1000
0000
0001
0000
0010
0000
0101
0000
1000
0000
,
0001
0010
0100
0010
1001
0000
0100
0000
0010
0000
0100
0000
1011
0000
1000
0000
0001
0000
0100
0000
1011
0000
1000
0000
0100
0000
0001
0000
0111
0000
1000
0000
,
0100
0001
0010
0100
1011
0000
0001
0000
1100
0000
0110
0000
0011
0000
0001
0000
1100
0000
0110
0000
0011
0000
0001
0000
1100
0000
0110
0000
0011
0000
0001
0000
,
1100
0000
0110
0000
0011
0000
0001
0000
0010
0100
1000
0100
0010
0001
0010
0100
1000
0100
0010
0001
0010
0100
1000
0100
0010
0001
0010
0100
1000
0100
1000
0100
,
0010
0001
0010
0001
0220
0000
0000
0000
0000
0000
0000
0000
0000
0000
0000
0000
0000
0000
0000
0000
0000
0000
0000
0000
0000
0000
0000
0000
0000
0000
0000
0000
,
0000
0000
0000
0000
1331
0000
1001
0000
1001
1001
1001
0110
1001
0000
1001
0000
0110
0110
0110
1001
0110
0000
0110
0000
0110
0110
0110
1001
1001
1001
1001
0000
,
1001
1001
1001
0000
1001
0000
0010
0000
0100
0000
0010
0000
1001
0000
0000
0000
0100
0000
0010
0000
0100
0000
0000
0000
0010
0000
0000
0000
0101
0000
0000
0000
,
0100
1000
0100
0000
0001
0000
0011
0000
0100
0010
0001
0000
0010
0000
0101
0000
,
0100
1000
0100
0010
0001
0010
0100
0000
0010
0001
1000
0000
0010
0000
1100
0000
,
0010
0001
1010
0100
0010
0001
0010
0000
0100
0000
1000
0000
0001
0000
0110
0000
,
1100
0000
1100
0010
0001
0100
1010
0000
0001
0010
0100
0000
0010
0000
1001
0000
,
0010
0100
0010
0000
1000
0000
0110
0000
0010
0001
0010
0000
1000
0000
1100
0000
,
0100
0000
0010
0000
0001
1000
0001
0010
0100
0000
0010
0000
1001
0000
0100
0000
0010
0000
0100
0000
1000
0001
1000
0100
0010
0000
0100
0000
1001
0000
0010
0000
,
0100
0010
1001
0000
0000
0110
0000
0000
1001
0000
0000
1000
0110
0000
0110
0000
,
1000
0001
1000
0001
0110
0000
0100
0000
0001
0000
0010
0000
0101
0000
0000
0000
1000
0000
0100
0000
1000
0000
0000
0000
0001
0000
0000
0000
0110
0000
0000
0000
,
0100
0010
0100
0000
0001
0000
1100
0000
0010
0001
1000
0000
1000
0000
0110
0000
,
0010
0001
1000
0100
0010
0100
1001
0000
0001
0010
0100
0000
0010
0000
0101
0000
,
0100
0010
1001
0100
0010
0001
0110
0000
0010
0000
0100
0000
1000
0000
1100
0000
,
0010
0000
0000
0000
1001
0010
0100
0000
0010
0000
1000
0000
0110
0000
0001
0000
0010
0000
1000
0000
0110
0000
1000
0000
0001
0000
0100
0000
1010
0000
0001
0000
,
0010
0100
0011
0100
0001
1000
0110
1000
0001
0100
0011
0001
0010
0100
1001
0100
,
0010
0001
1010
0100
1000
0100
1001
0010
0001
0010
1001
0100
0010
0100
1001
0010
,
0100
0010
1001
0010
0101
1000
0011
1000
0110
1000
0101
0010
0100
1000
0101
0010
,
1000
0000
0100
0010
1001
0000
0010
0000
0100
0000
0010
0000
1001
0000
0100
0000
0010
0000
1000
0000
0011
0000
0100
0000
0010
0000
1000
0000
0011
0000
0100
0000
,
1000
0010
0101
1000
0001
0010
1100
0001
0100
0010
1001
0100
0010
0100
0011
0100
,
1000
0010
0101
0010
0100
1000
0101
0010
0001
0100
1010
0001
0010
0001
1010
0100
,
0010
0001
1010
0100
0001
0100
1001
0010
0100
1000
0110
1000
0001
0010
1100
0001
,
0010
0100
1011
0001
0010
0001
0110
1000
0100
0010
0101
1000
0010
1000
0110
1000
,
0001
0100
1001
0010
0100
0001
1010
0100
0001
0100
1010
0001
0010
0100
0011
1000
,
0100
0000
0010
0000
0101
1000
0001
0000
1000
0000
0100
0000
1010
0000
0001
0000
0100
0000
0010
0000
1100
0010
0100
0000
0001
0000
0100
0000
0011
0000
0100
0000
,
1000
0000
0100
0010
1001
0000
0010
0000
0100
0000
1000
0000
0100
0000
0010
0000
0001
0000
0010
0000
0100
0000
1000
0000
0100
0000
0010
0000
0001
0000
0010
0000
,
0100
1000
0110
1001
0110
1001
1001
0000
0110
1001
0110
1001
1001
0000
1001
0000
,
1000
0001
1000
0001
0110
0000
0010
0000
1000
0000
0000
0000
0001
0000
0000
0000
0001
0000
0010
0000
0100
0000
0000
0000
0010
0000
0000
0000
0101
0000
0000
0000
,
0010
0100
0010
1000
0100
0010
0101
0000
0010
0100
1001
0000
0001
0000
0110
0000
,
0100
0001
1000
0100
0010
0100
1001
0000
0001
0000
0100
0000
0010
0000
0101
0000
,
1000
0000
0101
0010
0100
0010
1001
0000
1000
0100
0010
0000
0100
0000
1001
0000
,
0010
0100
0010
0000
0001
0000
1010
0000
0100
0010
0001
0000
0001
0000
0110
0000
,
0100
0000
1000
0000
0010
0001
0010
0000
0100
0000
0010
0000
1100
0000
0011
0000
0110
0000
1100
0000
0101
1000
0100
0000
0110
0000
0011
0000
1010
0000
0100
0000
,
0010
0000
0001
1000
0110
0000
0000
0000
0000
0000
0110
0000
0000
0000
0000
0000
1001
0000
0000
0000
0000
0000
1001
0000
0110
0000
0000
0000
0110
0000
0000
0000
,
0001
0010
0100
0010
2002
0000
0000
0000
0000
0000
0000
0000
0000
0000
0000
0000
0000
0000
0000
0000
0000
0000
0000
0000
0000
0000
0000
0000
0000
0000
0000
0000
,
0000
3003
0000
0000
0000
0000
0000
0000
;
